WK綜合論壇, WK综合论坛

查看:392885 回復:33 發表於 2016-10-15 09:03:03
累計簽到:2129 天
連續簽到:1 天
發表於 2016-10-12 18:58:49 | 顯示全部樓層 |閱讀模式
VIP精品區,資源無限好賺金任務區,輕松賺金幣
加入VIP,享受高級特權宣傳賺金又升級,超級棒

神奇隊長 Captain.Fantastic, 2016.[MKV / 3.48GB]   [複製鏈接]

影視分享
分類: 電影
題材: 愛情 劇情 喜劇 
地區: 美國 
語言: 英语 
格式: MKV 
年份: 2016
資源: BT资源
( r9 r9 R" v' Q1 h6 t7 z

/ I. j1 v- J$ Z7 B1 N◎译  名 神奇队长# |9 a6 X2 ?5 H: F6 J
◎片  名 Captain Fantastic
: D6 [- W2 O0 |( @) R◎年  代 2016
+ D+ Q- p1 U5 s- E9 H◎国  家 美国
6 D3 ]$ r" E6 j+ w- }! [◎类  别 剧情/喜剧/爱情
* C6 X! D/ z: C5 L◎语  言 英语
- T3 M, ~5 A0 W5 R, v5 ^* @( I◎上映日期 2016-01-23(圣丹斯电影节)/2016-07-08(美国)
. t5 A2 X8 r8 y7 E0 j1 ]◎IMDb评分  8.1/10 from 9,480 users5 o# v9 P( |0 u: D/ c* v
◎IMDb链接  http://www.imdb.com/title/tt3553976/, g/ V: i; {8 p( x1 J
◎豆瓣评分 7.9/10 from 243 users
. t( @# u) b9 V" _: A/ N◎豆瓣链接 https://movie.douban.com/subject/25834735/
. {; k5 Y: z' w  F: B◎片  长 118分钟* U  b/ B$ I- \$ |: A* G0 E
◎导  演 马特·罗斯 Matt Ross
" n, X8 d" |5 I7 y3 n5 A- s6 x◎主  演 维果·莫腾森 / 乔治·麦凯 / 安娜丽丝·巴索 / 弗兰克·兰格拉 / 史蒂夫·茨恩 / 凯瑟琳·哈恩 / 米西·派勒 / 艾琳·莫里亚蒂 / 萨曼莎·伊斯莱尔0 u3 Q7 `  h4 o- `8 v: l0 E
◎简  介
0 u7 R% D) d& m9 I( g& k+ {  e, c  在太平洋西北部的森林深处,与世隔绝,一位慈爱的父亲全心全意地试图将自己六个年幼的孩子培养成出色的成年人。但当灾难降临,他们被迫离开了自己创建的天堂,开始走向外面的世界。这不仅挑战了他对“家长“这个角色的理解,也让孩子们开始怀疑父亲所教给他们的一切。/ n& ~7 d& Y$ y( W5 y
Video
+ _8 F( F+ D3 YID                                       : 1
' R0 |; r( T; V9 q3 fFormat                                   : AVC/ H: z& ]& |$ W1 J" O( J1 K  f7 j
Format/Info                              : Advanced VideoCodec
$ e" d6 ], ?9 g/ ]: a* w( wFormat profile                           : [email protected]
& |) S" J0 L- R8 B$ i2 FFormat settings, CABAC                   : Yes$ Q. O# P5 \' k: o
Format settings, ReFrames                : 5 frames" w+ t" v+ t- V- r& f
Codec ID                                 :V_MPEG4/ISO/AVC- l2 c  P+ \: I+ N  H5 v( b7 K
Duration                                 : 1h 59mn
; ]0 x1 a+ H/ i/ e4 y' @Bit rate                                 : 4 424 Kbps  m  }7 \. L1 v/ ?' Q$ I  B- }7 M3 D
Width                                    : 1 916 pixels
0 k+ ]2 [; d* e1 EHeight                                   : 792 pixels
) [$ T( `8 f: d2 _$ t  B: MDisplay aspect ratio                     : 2.40:1
( H. \8 O" p+ W1 p* `Frame rate mode                          : Constant# W4 b& C. F* N4 F
Frame rate                               : 23.976 fps
+ F$ [7 E  C1 S+ s' F0 b* iColor space                              : YUV
+ m+ q; s( o& H1 o+ C% {! S- bChroma subsampling                       : 4:2:0
1 y' v% }7 ^2 r+ s, E5 x( YBit depth                                : 8 bits
" \- d. x( p( L1 v/ n$ @5 cScan type                                : Progressive. m% h6 d& K! q# c9 S% h# d# t7 l9 `
Bits/(Pixel*Frame)                       : 0.122; N3 h( F0 b  v& r( Q
Stream size                              : 3.69 GiB (90%)
8 N' _6 q1 U% n0 bTitle                                    :Captain.Fantastic.2016.1080p.WEB-DL.DD5.1.H264-FGT$ D- b: G; v& `4 V5 i* d7 g
Language                                 : English
& N& E8 Q8 D# J5 d7 G  G3 r% j/ NDefault                                  : Yes
$ p9 ]- z0 N- L0 XForced                                   : No
' N# y8 M) i! K2 _# }( c  oColor range                              : Limited- x# c8 u0 v' {0 s: r' ?
Color primaries                          : BT.709) s+ w" f, Y5 r( S
Transfer characteristics                 : BT.709
4 t  X$ C& X) k$ oMatrix coefficients                      : BT.709! ~+ m6 H6 e" }" S  M/ f, L7 E8 M& J- m
Audio# A5 A5 u; }( x' Y4 i% `
ID                                       : 2, `8 S7 K3 I3 V8 \! h
Format                                   : AC-3
" c/ E7 L9 X+ E) h0 }' GFormat/Info                              : Audio Coding 3* i" R" _1 P0 o4 ]$ K) J8 E
Mode extension                           : CM (complete main)4 A( L" J7 ]! j" l; B. y- X
Format settings, Endianness              : Big! Q, m9 h; ]" D) F8 m- U
Codec ID                                 : A_AC3
# U( x% O5 ]4 w, i5 K. |8 d  U! tDuration                                 : 1h 59mn: N8 C- T/ m/ j' i) b
Bit rate mode                            : Constant  X" j' }" q9 h- |& M* b! ~; w( c
Bit rate                                 : 384 Kbps
& v/ d) h; K5 M. ]2 GChannel(s)                               : 6 channels
6 {; W. r8 A- N7 }) `Channel positions                        : Front: L C R, Side: LR, LFE
1 C$ N) y0 D! q2 e0 e4 eSampling rate                            : 48.0 KHz
- f2 V% t; g8 YFrame rate                               : 31.250 fps(1536 spf)/ l4 X- ^* F6 s& ]+ x9 t6 H" d
Compression mode                         : Lossy
, u$ Z. B- |$ ~Stream size                              : 328 MiB (8%)
+ I- G& Q/ j" M5 D* |0 f# ATitle                                    :Captain.Fantastic.2016.1080p.WEB-DL.DD5.1.H264-FGT
  q0 @. V" ?3 P9 R1 I  |Language                                 : English
' P0 P8 @6 j" U, k. z' X: Q- |Default                                  : Yes6 O1 l3 P2 A! G" F" I! w' z" G
Forced                                   : No
8 T1 S" k2 M5 e  i' _Text
- N9 R. ?- U. u; LID                                       : 3
* e8 \* L7 T+ z) M& J* IFormat                                   : UTF-8
" y+ p7 n  b5 `6 _5 p$ @2 A) n0 T: JCodec ID                                 : S_TEXT/UTF8
- S1 f3 s& j* |& b8 QCodec ID/Info                            : UTF-8 Plain Text
8 {) m1 W! i  D" ~: G$ L4 QLanguage                                 : English
( ]* G0 A6 V3 @( lDefault                                  : Yes- Z: {6 P2 e+ u* n
Forced                                   : No2 d, |8 P) G' \9 r/ x$ w' E  i
Menu+ {3 k3 R  [5 t. d  T3 y+ g1 R
00:00:00.000                             : en:1
) G; B: F9 A# L% }1 o" |00:05:15.000                             : en:2+ V( j5 h9 l2 W# `
00:11:13.000                             : en:3
/ y3 g8 v2 n! D+ l  b00:17:35.000                             : en:49 c6 Z: ^" q( S4 X& s  G& H
00:25:21.000                             : en:5
- j% g) h$ |% f00:31:38.000                             : en:6: ~8 G4 E! B  t9 Q" q; [
00:37:42.000                             : en:7
4 A/ E7 r( x+ ^00:40:26.000                             : en:82 x' S$ M) [, W; h/ o- Q
00:46:11.000                             : en:9
5 n- d, `* u: y9 a7 U4 w9 u3 l00:54:04.000                             : en:10
4 F0 b8 \/ E( H$ o00:59:35.000                             : en:11
$ ?8 ^9 z2 y2 z; {01:08:22.000                             : en:129 e1 o% c/ P' @1 F2 `! o- ^
01:14:09.000                             : en:130 K+ R% B. f/ b/ }- M; a
01:20:19.000                             : en:14
5 s2 U' b6 I: ^0 O. ]' k/ O4 Q01:24:31.000                             : en:15
& J" {5 ~4 {( a( Z5 u$ l' y01:30:20.000                             : en:16: g: ~9 D6 C7 n9 [# R+ d! n
01:36:53.000                             : en:17
3 G# F+ u3 u5 W  s9 ?01:43:04.000                             : en:188 g9 w5 I+ N& g6 d- u
01:48:24.000                             : en:19, ]" {% ~6 w5 u0 C/ _9 l
01:52:48.000                             : en:20
) Q, j! r0 e3 X( J1 @# ^& U

$ x5 z+ h6 I+ f; V* y2 S8 R 神奇隊長. MKV.torrent (70.13 KB, 下載次數: 8394)

尚未簽到

發表於 2016-10-12 18:59:49 | 顯示全部樓層
VIP精品區,資源無限好賺金任務區,輕松賺金幣
加入VIP,享受高級特權宣傳賺金又升級,超級棒
精妙絕倫的精品,感謝啊!期待你更多更好的創作哦!

尚未簽到

發表於 2016-10-13 06:15:20 | 顯示全部樓層
偶像^^小生一直都在關注你的原創!小生對你之仰慕如滔滔江水連綿不絕!

尚未簽到

發表於 2016-10-13 12:49:08 | 顯示全部樓層
精妙絕倫的精品,感謝啊!期待你更多更好的創作哦!

尚未簽到

發表於 2016-10-14 01:03:40 來自手機 | 顯示全部樓層
偶像^^小生一直都在關注你的原創!小生對你之仰慕如滔滔江水連綿不絕!

尚未簽到

發表於 2016-10-14 14:24:59 | 顯示全部樓層
精妙絕倫的精品,感謝啊!期待你更多更好的創作哦!

尚未簽到

發表於 2016-10-14 16:18:19 | 顯示全部樓層
偶像^^小生一直都在關注你的原創!小生對你之仰慕如滔滔江水連綿不絕!

尚未簽到

發表於 2016-10-14 19:15:03 | 顯示全部樓層
精妙絕倫的精品,感謝啊!期待你更多更好的創作哦!

尚未簽到

發表於 2016-10-14 23:25:21 | 顯示全部樓層
偶像^^小生一直都在關注你的原創!小生對你之仰慕如滔滔江水連綿不絕!
累計簽到:1 天
連續簽到:1 天
發表於 2016-10-15 09:03:03 | 顯示全部樓層
精妙絕倫的精品,感謝啊!期待你更多更好的創作哦!

回復樓主 親!! 現在是淩晨!妳失眠啦?餓啦?通宵加班?還是想WK啦?

 分享同時學會感恩,一句感謝的話語,就是最大的支持!  歡迎交流討論
您需要登錄後才可以回帖 登錄 | 立即注册

本版積分規則

c重要聲明:本論壇是以即時上載言論的方式運作,WK論壇對所有言論的真實性、立場及版權等,不負任何法律責任。而一切言論只代表發佈者個人意見,並非本網站之立場,讀者及用戶務必自行判斷內容之真實性。 由於本論壇受到「即時上載言論」運作方式所規限,故不能完全監察所有言論,若讀者及用戶發現有內容出現「真實性、立場及版權」等問題,請聯絡我們:[email protected]論壇有權刪除任何言論(刪除前或不會作事先警告及通知)| SiteMap[網站地圖]

發表新帖 返回頂部